<?xml version="1.0" standalone="no"?>
<!DOCTYPE svg PUBLIC "-//W3C//DTD SVG 1.1//EN" "http://www.w3.org/Graphics/SVG/1.1/DTD/svg11.dtd">
<svg xmlns="http://www.w3.org/2000/svg">
<metadata>Copyright (C) 2016 by original authors @ fontello.com</metadata>
<defs>
<font id="fontello" horiz-adv-x="1000" >
<font-face font-family="fontello" font-weight="400" font-stretch="normal" units-per-em="1000" ascent="850" descent="-150" />
<missing-glyph horiz-adv-x="1000" />
<glyph glyph-name="line" unicode="&#xe800;" d="m523 850c289 0 523-190 523-424 0-96-40-185-107-257-113-122-433-339-461-318-30 24 16 57 12 132-1 16-11 20-16 21-266 20-474 202-474 422 0 234 234 424 523 424z m-131-290c-15 0-27-12-27-27v-204c0-15 12-27 27-27s27 12 27 27v204c0 15-12 27-27 27z m-182 0c-15 0-27-12-27-27v-204c0-15 12-27 27-27h102c15 0 28 12 28 27 0 15-13 27-28 27h-75v177c0 15-12 27-27 27z m275 0c-15 0-27-12-27-27v-204c0-15 12-27 27-27s28 12 28 27v127l105-144c9-11 26-14 38-5 7 5 12 13 12 22v204c0 15-12 27-27 27s-27-12-27-27v-127l-106 143-8 7c-4 3-9 4-15 4z m247 0c-9 0-17-4-22-10-3-5-5-10-5-17v0-204 0c0-15 12-27 27-27h103c15 0 27 12 27 27 0 15-12 27-27 27h-76v48h76c15 0 27 12 27 27s-12 27-27 27h-76v48h76c15 0 27 12 27 27 0 15-12 27-27 27h-103l0 0z" horiz-adv-x="1046" />
<glyph glyph-name="feedly" unicode="&#xe801;" d="m308-64l-282 285c-35 34-35 108 0 141l404 406c33 33 105 33 138 0l406-406c35-35 35-109 0-142l-282-284c-17-17-44-29-71-29h-246c-25 0-50 12-67 29z m258 111c6 6 6 17 0 23l-55 55c-6 6-18 6-23 0l-56-55c-5-6-5-17 0-23l44-42h46l44 42z m0 235c4 3 4 13 0 17l-59 59c-4 4-14 4-17 0l-172-172c-6-6-6-19 0-25l40-40h46l162 161z m0 232c4 4 6 16 0 19l-57 58c-4 4-16 4-21 0l-288-288c-4-4-6-16-2-19l45-44h44l279 274z" horiz-adv-x="1000" />
<glyph glyph-name="raspberrypi" unicode="&#xe802;" d="m673 131c-36-41-56-116-30-141 25-18 92-16 141 52 36 45 24 121 4 141-31 23-74-6-115-52z m-336-12c-38 43-87 69-119 50-22-16-26-71 5-124 45-64 108-70 134-55 28 21 13 89-20 129z m171-132c-46 1-117-18-116-43-1-17 56-65 113-63 55-1 113 48 112 69 0 22-63 39-109 37z m-3 582c-53 1-105-39-105-62 0-29 42-58 105-58 64-1 105 23 105 52 0 33-58 69-105 68z m-128-22c-89 15-164-38-161-133 3-36 194 127 161 133z m406-136c3 96-71 148-160 133-33-5 157-169 160-133z m15-34c-51 14-17-210 25-192 46 37 61 144-25 192z m-621-195c42-18 76 206 25 192-86-48-71-155-25-192z m393 248c-48-31-57-100-19-156s106-75 154-44c47 30 56 100 19 156s-106 75-154 44z m-129-5c-48 31-117 11-154-45-37-55-29-125 19-156 48-31 117-11 154 44 37 56 28 126-19 157z m182-299c0 58-52 105-116 105-64-1-115-48-115-106v-1c0-58 52-104 116-104 64 0 115 47 115 105v1z m134 631c-96-49-153-88-183-122 15-62 97-65 127-63-6 3-11 6-13 11 8 5 35 1 53 11-7 1-10 3-14 8 18 6 37 10 48 19-6 0-12-1-19 5 15 8 32 15 45 27-8 0-17 0-19 3 14 9 26 19 36 30-11-2-16-1-19 1 11 11 25 21 32 34-9-3-17-4-22 0 4 9 19 14 29 33-9-1-19-2-21 0 4 16 12 26 18 35-19 1-47 0-46 2l12 12c-19 5-38-1-52-5-6 5 0 11 8 17-16-2-30-6-43-11-7 7 4 13 10 19-25-5-35-11-45-18-8 7-1 13 4 20-18-7-28-16-38-24-3 4-8 8-2 18-13-7-23-16-30-26-8 5-5 12-5 19-14-11-22-23-33-34-2 1-4 7-6 15-32-31-78-109-12-140 57 46 125 79 200 104h0z m-512 0c75-25 143-58 200-104 66 31 20 109-12 140-2-8-4-14-6-15-10 11-19 23-33 34 0-7 4-14-4-19-8 10-18 19-31 26 7-11 1-14-2-18-10 8-19 17-38 24 5-6 12-12 5-20-11 7-21 13-45 18 5-6 16-12 10-19-13 5-28 9-44 11 8-6 14-12 8-17-14 4-33 10-51 5l11-12c2-2-27-1-46-1 7-10 14-19 18-36-2-2-12-1-20 0 9-19 25-24 28-32-5-5-13-4-22-1 7-13 21-22 32-33-3-2-8-4-19-2 10-11 22-21 37-30-3-2-12-2-20-3 13-12 30-19 46-27-8-6-14-4-20-4 11-9 30-14 48-20-3-5-7-6-14-8 19-10 45-5 53-11-2-5-7-8-13-11 30-2 112 1 128 63-31 34-87 73-184 122z m73 93c10 0 18-6 27-8 22 7 27-3 38-7 24 5 31-6 43-17l13 0c37-21 55-64 61-86 6 22 24 65 61 86l13 0c12 11 19 22 43 17 11 4 16 14 38 7 14 4 26 15 44 1 16 6 31 8 44-4 20 3 27-3 32-9 5 0 34 4 47-15 34 4 45-20 33-42 7-10 14-21-2-41 5-11 2-23-12-38 4-15-3-26-16-35 3-21-20-34-26-38-3-13-8-25-34-31-4-19-19-22-34-26 49-28 91-65 91-155l7-13c56-34 107-142 28-230-5-27-14-47-22-69-11-88-87-130-107-135-29-21-60-42-102-57-39-40-82-55-125-55h-2c-43 0-86 15-125 55-42 15-73 36-102 57-20 5-96 47-107 135-8 22-16 42-22 69-79 88-28 196 28 230l7 13c0 90 42 127 91 155-15 4-30 7-34 26-26 6-31 18-34 31-6 4-29 17-26 38-13 9-20 20-16 36-14 14-17 26-11 37-17 20-10 31-3 41-12 22-1 46 33 42 13 19 42 15 47 15 5 6 12 12 32 9 14 12 28 10 44 4 6 5 12 7 17 7z" horiz-adv-x="1000" />
<glyph glyph-name="sass" unicode="&#xe803;" d="m500 850c276 0 500-224 500-500s-224-500-500-500-500 224-500 500 224 500 500 500z m-99-667c7-26 6-52-1-74l-3-8c-1-2-2-5-3-7-6-12-14-23-23-34-30-31-70-43-88-33-18 11-9 55 25 91 36 38 88 63 88 63v0l5 2z m413 453c-23 89-170 118-310 69-83-30-172-76-237-137-77-71-89-134-84-160 18-92 144-152 196-197v0c-15-8-127-64-153-122-28-62 4-105 25-111 66-19 133 14 170 68 35 53 32 120 16 154 22 5 46 8 77 4 88-10 105-65 102-88-4-23-22-35-28-39-6-4-8-5-8-8 1-4 4-4 9-3 7 1 46 18 48 61 2 53-49 113-141 112-37-1-61-4-78-11-1 2-2 3-4 5-56 60-160 102-156 183 2 29 12 107 200 201 155 76 278 55 300 8 30-67-66-191-227-209-61-7-93 17-101 26-8 9-9 9-13 8-5-3-1-11 0-16 5-13 25-35 58-46 30-10 101-15 188 19 97 37 173 142 151 229z" horiz-adv-x="1000" />
<glyph glyph-name="netflix" unicode="&#xe804;" d="m396-130v551l187-529c57 7 114 13 172 18v940h-151v-571l-201 571h-158v-1000h1c50 7 100 13 150 20" horiz-adv-x="1000" />
<glyph glyph-name="hatenabookmark" unicode="&#xe805;" d="m853 850c81 0 147-66 147-147v-706c0-81-66-147-147-147h-706c-81 0-147 66-147 147v706c0 81 66 147 147 147h706z m-154-603c-33 0-59-26-59-59s26-59 59-59 58 27 58 59-26 59-58 59z m-340-116c49 0 85 2 107 5 22 4 40 10 55 18 19 9 33 23 42 41 10 18 15 38 15 62 0 32-9 58-26 77-18 20-42 31-73 33 28 8 48 19 61 34 12 14 19 34 19 59 0 19-5 37-13 52-9 15-21 27-37 36-14 7-31 13-50 16-20 3-54 5-104 5h-120v-438h124z m30 175c29 0 49-4 60-11 11-7 16-20 16-39 0-16-6-28-17-35-12-7-32-11-60-11h-42v96h44z m361-30v295h-103v-295h103z m-378 196c29 0 49-4 59-10 10-7 16-18 16-35 0-16-6-27-17-33-11-7-31-10-60-10h-24v88h26z" horiz-adv-x="1000" />
<glyph glyph-name="gulp" unicode="&#xe806;" d="m632 40l26 45s-60-24-161-24c-101 0-160 24-160 24l30-50 10-155c0-17 55-30 123-30 67 0 122 13 122 30l10 160z m25 294c-32-2-48-38-64-75-6-14-26-73-39-65-14 7 17 55 25 84-9-8-46-36-55-9-15-13-47-20-44 13-8-14-25-34-47-25-28 10 16 101 27 96 12-5-2-25-5-33-8-18-17-40-11-44 10-8 38 29 39 30 5 7 20 52 31 46 12-5-29-64-14-76 3-2 16 2 24 10 5 6 3 18 20 58 17 40 32 90 43 86 12-4 2-29-2-39-19-45-53-119-37-113 16 6 24 6 39 24 16 18 15 48 25 47 11 0 9-10 7-17 10 12 48 36 57 12 11-29-54-70-38-68 16 2 41 18 52 33l31 271s-31-25-224-25c-193 0-220 25-220 25l25-248c14 39 46 117 97 115 24-2 55-46 28-48-11-1-12 22-25 26-10 2-24-6-32-14-17-17-54-84-49-117 6-42 58 15 67 32 6 12 10 47 24 43 13-3-2-40-11-72-11-36-17-75-31-70-14 4 9 51 8 59-13-12-37-42-68-27l16-154s42-34 170-34 172 33 172 33l20 179c-17-16-68-44-71-13-3 26 55 63 41 64h-1z m66 489l-111-117-20-79c78-5 133-16 133-29 0-18-101-32-225-32s-225 14-225 32c0 17 101 32 225 32 18 0 35-1 53-1l23 95 118 125c3 3 12 0 20-7 8-7 12-15 10-18l-1 0 0-1z m-160-242s-22 0-25 4c-1 1-2 2-2 3 0 3 2 4 4 5l2-3c-1 0-1-1-2-1 0-2 14-3 24-3 10 0 22 1 22 3 0 0-1 1-3 1l2 3c3-1 5-2 5-5 0-4-6-5-10-6-4 0-17-1-17-1z" horiz-adv-x="1000" />
<glyph glyph-name="ubuntu" unicode="&#xe807;" d="m500 850c276 0 500-224 500-500s-224-500-500-500-500 224-500 500 224 500 500 500z m137-737c-32-18-43-59-25-91 19-32 59-43 91-24 32 18 43 59 25 91-19 32-59 43-91 24z m-137 42c-29 0-57 7-82 18l-46-83c38-19 82-30 128-30 27 0 53 4 78 11 4 26 20 51 45 66 26 14 55 16 80 6 50 49 82 115 86 188l-95 2c-9-100-92-178-194-178z m-195 195c0 66 33 124 83 160l-49 81c-58-39-102-98-120-168 21-17 35-44 35-73 0-29-14-55-35-73 18-69 62-129 120-168l49 82c-50 35-83 93-83 159z m-145 67c-37 0-67-30-67-67 0-37 30-67 67-67 37 0 67 30 67 67 0 37-30 67-67 67z m340 128c102 0 185-78 194-178l95 2c-4 73-36 139-86 188-25-10-55-8-80 6-25 15-41 40-45 67-25 6-51 10-78 10-46 0-90-11-128-30l46-83c25 12 53 18 82 18z m137 42c32-19 72-8 91 24 18 32 7 73-25 91-31 19-72 8-91-24-18-32-7-73 25-91z" horiz-adv-x="1000" />
<glyph glyph-name="hulu" unicode="&#xe808;" d="m157 412h-50c-18 0-27-4-27-4v107h-80v-330h80v132c0 13 9 23 21 23h47c11 0 21-10 21-21v-134h80v144c0 60-41 83-92 83m764 0v-132c0-12-10-21-22-21h-46c-12 0-22 9-22 21v132h-80v-140c0-56 37-87 92-87h77c51 0 80 35 80 87v140h-80z m-449-132c0-12-10-21-21-21h-47c-12 0-21 9-21 21v132h-80v-140c0-56 37-87 91-87h78c50 0 79 35 79 87v140h-79v-132z m142-95h79v330h-79v-330z" horiz-adv-x="1000" />
<glyph glyph-name="ruby" unicode="&#xe809;" d="m840 847c126-22 162-109 159-199l1 1-57-745-739-51 0 1c-61 2-198 7-204 199l69 125 117-275 21-49 116 381-1 0 0 1 386-123-58 226-41 163 367 24-26 21-263 215 153 85z m-840-792v-1 1z m214 584c148 147 340 234 413 160 74-74-4-255-153-402-148-147-337-239-411-165-73 74 2 259 151 406z" horiz-adv-x="1000" />
<glyph glyph-name="heroku" unicode="&#xe80a;" d="m859 850h-718c-50 0-90-40-90-90v-820c0-50 40-90 90-90h718c50 0 90 40 90 90v820c0 50-40 90-90 90z m40-910c0-23-18-40-40-40h-718c-22 0-40 17-40 40v820c0 23 18 40 40 40h718c22 0 40-17 40-40v-820z m-623 60l113 100-113 100v-200z m405 405c-20 20-57 45-120 45-67 0-137-17-187-35v285h-100v-432l70 32s115 53 215 53c50 0 62-28 62-53v-300h100v300c3 8 3 63-40 105z m-132 133h100c45 52 67 105 75 162h-100c-10-57-35-110-75-162z" horiz-adv-x="1000" />
<glyph glyph-name="gumtree" unicode="&#xe80b;" d="m784 579c-7 5-13 13-13 24-13 139-129 247-271 247s-258-108-271-247c0-11-5-19-13-24-71-50-116-132-116-224 0-126 87-232 203-263 21-6 39-8 47-3 16 8 32 76 24 92-6 8-24 16-43 21-68 19-118 82-118 156 0 42 16 79 42 108 11 13 26 23 40 31 29 16 47 48 47 82 0 18 3 34 8 50 21 63 82 110 153 110s131-47 152-110c6-16 8-32 8-50 0-34 16-66 48-82 16-8 29-18 39-31 27-29 42-66 42-108 0-90-71-161-160-161-103 0-185-84-185-184v-106c0-21 3-42 8-47 13-13 82-13 95 0 5 5 8 26 8 47v108c0 40 32 71 71 71 150 0 271 122 271 272 0 89-44 171-116 221z" horiz-adv-x="1000" />
<glyph glyph-name="jenkins" unicode="&#xe80c;" d="m120-150h-41c-1 3-2 5-3 8-9 28-25 62-29 90-6 41 33 43 58 61 38 28 68 43 109 68 12 7 49 26 53 34 9 17-14 41-20 54-10 21-15 39-16 60-35 6-61 26-77 49-26 39-44 110-22 164 2 5 11 13 12 20 3 13-4 30-5 43-2 71 12 132 59 153 20 77 89 102 154 140 24 15 51 24 78 34 99 36 252 29 334-33 35-26 90-82 110-122 53-107 49-285 12-414-5-18-12-43-22-64-7-15-29-44-26-57 3-13 50-49 60-58 18-18 52-41 55-63 3-23-10-55-17-78-9-31-18-60-27-89h-789z m462 148c-22 12-56 26-86 31-36 7-33-49-31-83 1-27 15-55 21-73 3-8 4-17 11-18 12-3 53 13 65 20 25 13 44 35 65 49 1 7 1 14 1 21-13 6-27 11-46 12 13 6 31 6 43 14l0 8c-21 2-29 11-43 19z m311-123c8 26 15 51 19 73 3 12 9 38 8 49-3 19-29 34-42 45-24 22-40 42-65 62-10-15-33-25-41-38 60 29 71-109 48-154 3-13 16-18 21-30l-4-6h54c1 0 1 0 2-1z m-276 1c-2 3-5 5-7 8l-12-8h19z m115 0c0 8 1 16 1 24-22-1-34 20-50 22-13 1-25-15-42-8-4-5-8-9-12-14 7-7 12-16 18-24h34c0 6 5 11 12 11 6 0 11-5 12-11h27z m88 0c-13 20-39 37-70 22 0-7-1-15-1-22h71z m-354 0l-5 14c-9 30-14 52-17 69-37 18-78 36-110 60-6 4-46 56-51 54-73-29-140-78-201-125 11-23 21-47 29-72h355z m344 87c-1 22-6 65-19 73-28 16-77-32-98-40 3-6 6-11 7-20 12 3 27 1 37-4-12-1-26-1-34-7-3-9 1-20-1-32 29-9 62-13 99-14 7 9 10 27 9 45z m-169 15c-2-16 2-21 5-39 53-17 44 72-5 39z m-275 59c-19-19 53-45 75-47 0 13 7 24 6 33-27 5-63 1-81 14z m231-9c0-2-2-1-2-3 24-18 42-22 75-21 15 11 28 24 43 34-35-3-80-26-116-10z m143 739c-67 38-181 66-253 31-58-29-136-77-163-138 25-58-7-112-9-171-2-31 14-59 16-93-9-14-35-16-53-15-6 30-17 64-48 68-44 5-77-32-79-70-2-45 35-120 87-115 21 2 26 22 48 22 11-24-19-31-22-48-1-5 3-22 5-30 9-39 30-90 51-120 27-38 79-44 135-48 10 22 47 20 71 15-29 11-56 39-78 63-26 28-51 58-53 95 48-67 88-125 176-154 66-23 143 10 194 46 21 14 34 38 49 60 56 80 82 196 77 307-3 47-3 93-18 124-16 32-71 61-103 32-6 31 27 51 65 39-27 36-56 78-95 100z m-174-538c26-64 114-57 188-55-4-8-11-18-19-22-24-10-90-17-123 1-21 11-34 36-46 51-5 7-33 25 0 25z m7 36c37-19 105-21 155-20 3-11 3-24 3-38-65-3-141 13-158 58z m278 25c-20-38-48-79-106-81-1 12-2 31 0 38 45 5 72 27 106 43z m-27 27c-42-27-90-57-159-50-15 13-21 42-6 61 7-13 2-37 23-40 40-7 86 24 114 35 18 29-1 40-17 59-33 39-76 88-75 147 13 9 15-15 17-19 16-40 59-91 90-125 8-8 21-16 22-22 4-16-11-35-9-46z m-560 29c-13 8-17 41-32 42-23 2-19-43-18-69-16 14-19 56-7 79-13 6-19-7-26-12 9 67 97 31 83-40z m-68 254c-28-31-22-90-19-132 52 32 121-3 120-59 25 1 9 31 5 51-15 64 25 133 2 191-45-3-81-21-108-50z m380-46c13-23 17-48 35-65 8-8 24-18 16-40-2-5-15-17-23-19-28-8-94-2-71 33 23-1 54-15 72 2-14 22-37 64-29 89z m259 1h2c14-28 25-58 42-82-11-27-85-50-84-3 16 7 44 2 58 11-8 22-20 42-18 74z m-289 67c-59 14-89-25-107-65-16 4-9 26-5 37 10 29 53 68 88 63 15-2 35-16 24-35z m-144 162c-65-18-149-66-175-124 20 3 35 13 55 15 8 0 18-4 27-1 18 4 32 44 46 58 13 15 28 21 39 34 7 3 17 3 18 13-4 4-7 6-10 5z" horiz-adv-x="1000" />
<glyph glyph-name="nintendo" unicode="&#xe80d;" d="m0 825h296l410-663 0 663h294v-950h-293l-413 663v-663h-294l0 950" horiz-adv-x="1000" />
<glyph glyph-name="fbmessenger" unicode="&#xe80e;" d="m500 850c-276 0-500-207-500-463 0-146 73-276 186-361v-176l171 93c45-12 93-19 143-19 276 0 500 207 500 463 0 256-224 463-500 463z m50-623l-128 135-248-135 273 290 131-136 245 136-273-290z" horiz-adv-x="1000" />
<glyph glyph-name="mixi" unicode="&#xe80f;" d="m477-12q-184 0-319 101t-155 255q-22 170 108 308t336 164 366-77 182-273q14-118-35-244t-165-225-270-117l0 108-48 0z m306 220l0 276q0 34-10 52-8 18-30 38-16 12-44 20-28 6-56 6-44 0-74-16-24-12-42-30-10 16-36 32-30 14-70 14-66 0-110-38l0 30-88 0 0-384 92 0 0 236q0 4 4 20 4 10 16 26 10 14 26 20 20 10 40 10 18 0 30-6 8-4 16-10 4-8 8-20 4-16 4-28l0-248 90 0 0 236q0 36 22 54 22 22 62 22 20 0 32-6 10-2 16-12 8-8 8-18 4-20 4-28l0-248 90 0z" horiz-adv-x="998" />
<glyph glyph-name="microsoftonenote" unicode="&#xe810;" d="m998 426v-150c0-6-2-11-6-15-5-4-10-6-15-6h-33v192h33c5 0 10-2 15-6 4-5 6-9 6-15z m-21-193c5 0 10-3 15-7 4-4 6-9 6-15v-150c0-6-2-11-6-15-5-4-10-6-15-6h-33v193h33z m0 428c5 0 11-2 16-6 5-4 7-9 7-15v-150c0-6-2-11-7-15-5-4-11-6-16-6h-54v-462c0-6-2-11-7-14-4-3-9-5-15-5h-279v94h217v45h-217v53h217v42h-217v55h217v42h-217v54h217v42h-217v54h217v42h-217v54h217v44h-217v106h287c1 0 3-2 7-6 4-4 6-8 7-14v-34h54z m-408 161v-944l-569 98v746l569 100z m-163-280l-66-4v-124c-1-73-1-115 0-126l-133 242-68-2v-344l53-4v253l143-261 71-4v374z" horiz-adv-x="1000" />
<glyph glyph-name="playstation" unicode="&#xe811;" d="m374 743v-730l163-53v613c0 29 13 48 33 41 26-7 32-34 32-63v-244c101-50 181 0 181 131 0 135-47 195-185 243-54 18-155 49-224 62z m194-676l262 95c29 11 34 26 10 34-24 8-68 6-98-5l-174-63v100l10 3s50 18 121 26c71 8 158-1 226-27 77-25 86-61 66-86-19-25-67-43-67-43l-356-130v96z m-493 10c-79 23-92 70-56 97 33 25 90 43 90 43l233 85v-96l-168-61c-29-11-34-26-10-34 24-9 68-6 98 5l80 29v-86c-5-1-11-2-16-2-80-14-166-8-251 20z" horiz-adv-x="1000" />
<glyph glyph-name="laravel" unicode="&#xe812;" d="m269 297l571 137c-32 45-175 248-189 268-16 22 0 32 26 36 25 4 243 41 262 44 16 2 29 7 51-13-20 48-68 81-123 81h-734c-65 0-119-46-131-108l267-445z m678 433c-8-2-198-36-210-38-12-1-8-8-3-14l167-230 99 25v213c-14 18-24 31-26 34-11 15-18 12-27 10m53-510c-49 66-102 139-107 146-6 10-10 12-27 6l-556-145s170-295 184-314c13-19 21-18 31-13 8 3 325 110 475 161v159z m0 98v83l-52-14 52-69m-342-468h209c70 0 127 54 133 122-107-38-246-88-342-122m-427 357c-62-16-151-40-231-60v-164c0-74 59-133 133-133h300c-40 64-146 257-202 357m-47 86l-184 319v-380l180 43c15 4 12 6 4 18m759 100l57 16v-26l-39-13-18 23z" horiz-adv-x="1000" />
<glyph glyph-name="javascript" unicode="&#xe813;" d="m0 850h1000v-1000h-1000v1000z m918-761c-7 45-37 83-125 119-31 15-65 25-75 48-4 13-4 21-2 29 6 27 38 35 63 28 17-6 32-18 41-38 43 28 43 28 73 47-11 17-17 25-24 32-26 29-62 44-118 43l-30-4c-28-7-55-22-71-42-47-53-33-147 24-186 57-42 140-52 151-92 10-49-36-64-82-59-34 7-52 25-73 56l-76-44c9-20 19-29 34-46 73-74 254-70 286 41 2 4 10 29 4 69z m-374 301h-94c0-80 0-161 0-241 0-52 2-99-6-113-14-29-49-25-65-20-17 8-25 19-35 35-2 5-4 9-5 9-25-16-51-31-76-47 13-26 31-48 55-63 36-21 84-28 134-16 32 9 60 29 75 59 21 39 17 87 17 139 0 86 0 172 0 258z" horiz-adv-x="1000" />
<glyph glyph-name="googleplay" unicode="&#xe814;" d="m51 850c-1-4-3-8-3-13v-968c0-9 3-14 8-19l476 504-481 496z m513-529l123-127-176-100s-223-127-346-198l399 425z m33 34l132-137c21 12 182 104 205 117 25 14 22 33 1 43-19 11-180 103-205 118l-133-141z m-33 33l124 133-177 101s-290 165-386 221l439-455z" horiz-adv-x="1000" />
<glyph glyph-name="bootstrap" unicode="&#xe815;" d="m0-21c0-71 58-129 129-129l742 0c71 0 129 58 129 129l0 742c0 71-58 129-129 129l-742 0c-71 0-129-58-129-129l0-742z m415 429l0 141 124 0c12 0 24-1 35-3 11-2 21-5 29-10 8-5 15-12 20-21 5-9 8-21 8-35 0-26-8-44-23-55-15-12-35-17-58-17l-135 0 0 0z m-133 245l0-606 293 0c27 0 54 4 79 10 26 7 49 18 69 32 20 14 36 32 48 55 12 22 18 48 18 79 0 38-9 70-28 97-18 27-46 46-83 56 27 13 47 30 61 50 14 21 21 46 21 77 0 28-5 52-14 71-9 19-23 35-40 46-17 12-37 20-61 25-23 5-50 8-78 8l-285 0 0 0z m133-502l0 166 145 0c29 0 52-7 69-20 18-13 27-35 27-67 0-15-3-28-8-39-6-10-13-18-22-24-9-6-20-10-31-12-12-3-25-4-38-4l-142 0 0 0z" horiz-adv-x="1000" />
<glyph glyph-name="meetup" unicode="&#xe816;" d="m63 22c-35 0-63 28-63 62v532c0 34 28 62 63 62h875c34 0 62-28 62-62v-532c0-34-28-62-62-62h-875z m906 470h-937v-375h937v375z" horiz-adv-x="1000" />
<glyph glyph-name="kickstarter" unicode="&#xe817;" d="m400 509l184 266c34 50 79 75 134 75 45 0 84-16 116-48 33-31 49-69 49-114 0-32-8-61-26-86l-165-241 202-256c20-26 31-55 31-90 0-45-16-84-48-116-32-33-70-49-116-49-49 0-87 16-113 48l-248 309v-170c0-49-8-86-25-113-31-49-75-74-134-74-54 0-95 18-124 54-28 33-42 77-42 132v632c0 52 14 95 42 129 30 35 70 53 122 53 49 0 90-18 123-53 18-20 29-40 34-60 3-13 5-36 5-70v-158z" horiz-adv-x="1000" />
<glyph glyph-name="microsoftaccess" unicode="&#xe818;" d="m1000 224c-2-22-32-40-90-53-58-14-131-20-219-20-25 0-50 0-74 1v-137c24-2 49-2 74-2 88 0 160 8 219 23 58 15 88 34 90 56v132z m-310 99c-25 0-50 0-74 2l1-139c24-1 49-1 75-1 87 1 160 8 218 23 58 15 88 33 90 56v134c-2-23-32-41-91-55-58-13-131-20-219-20z m0 172c-25 0-50 0-74 2v-139c24-2 49-2 74-2 88 0 161 8 219 23 59 15 89 33 91 56v133c-2-22-32-40-91-53-58-14-131-20-219-20z m0 192c-25 0-50-1-74-3v-154c24-1 49-2 74-2 88 1 161 8 219 23 59 14 89 33 91 56-2 23-32 42-91 57-58 15-131 23-219 23z m-420-217c-2-8-7-34-17-78l-19-76 75-1-18 76c-11 45-18 71-19 79h-2z m-270 249v-740l564-98v938l-564-100z m345-552l-21 84-104 3-20-78-66 4 101 353 77 5 110-375-77 4z" horiz-adv-x="1000" />
<glyph glyph-name="microsoftpowerpoint" unicode="&#xe819;" d="m979 683h-356v-132c21 16 47 24 77 24v-129h128c-1-36-13-67-38-91s-55-38-91-38c-28 0-54 9-76 25v-89h280v-43h-280v-54h280v-43h-280v-98h356c14 0 21 8 21 23v624c0 14-7 21-21 21z m-259-216v131c36-1 67-14 91-38 25-25 38-56 38-93h-129z m-376-2c-2 9-6 15-11 20-5 4-12 8-20 10-9 2-19 3-29 3l-30-1v-124h1c11-1 23-1 35-1 12 0 23 4 33 9 13 9 21 22 24 38 2 16 1 31-3 46z m-344 258v-748l571-99v948l-571-101z m426-337c-16-37-39-60-70-70-32-10-65-14-102-11v-143l-75 9v391l119 7c22 1 44-1 66-8 21-6 38-19 51-38 12-19 19-42 21-67 1-26-2-49-10-70z" horiz-adv-x="1000" />
<glyph glyph-name="microsoftexcel" unicode="&#xe81a;" d="m981 721h-335v-62h99v-98h-99v-32h99v-98h-99v-32h99v-93h-99v-37h99v-93h-99v-37h99v-94h-99v-68h335c6 1 10 8 14 18 3 11 5 20 5 27v688c0 5-2 8-5 9-4 1-8 2-14 2z m-43-676h-161v94h161v-94z m0 131h-161v93h161v-93z m0 130h-161v93h161v-93z m0 125h-161v98h161v-98z m0 130h-161v98h161v-98z m-938 175v-775l590-102v982l-590-105z m350-586c-3 6-13 32-32 78-19 45-30 72-33 79h-1l-63-150-85 6 100 187-92 188 87 4 57-147h1l64 154 89 5-106-203 110-207-96 6z" horiz-adv-x="1000" />
<glyph glyph-name="microsoftoutlook" unicode="&#xe81b;" d="m1000 542v-436c0-10-3-18-10-24-6-7-14-10-24-10h-356v290l66-51c5-4 10-5 16-5s12 1 16 5l292 231z m-390 84h356c9 0 16-2 23-8 6-5 9-12 10-21l-307-245-82 65v209z m-51 188v-928l-559 96v733l559 99z m-169-466c-1 47-13 87-37 117-23 31-53 48-89 49-35-1-64-18-88-49-23-30-36-70-36-117 0-46 13-85 36-116 24-31 53-47 88-49 35 1 65 18 89 49 24 31 36 70 37 116z m-130 104c18-1 33-11 45-30 12-19 18-44 18-73 0-30-6-54-18-74-12-19-27-29-45-29-18 0-34 10-46 29-12 20-18 44-18 74 0 29 6 53 18 73 12 19 28 29 46 30z" horiz-adv-x="1000" />
<glyph glyph-name="microsoftword" unicode="&#xe81c;" d="m1000 695v-690c0-6-2-11-6-14-4-4-9-6-15-6h-357v96h291v43h-291v53h291v44h-291v54h291v43h-291v54h291v43h-291v53h291v44h-291v54h291v42h-291v108h357c6 0 11-2 15-7 4-4 6-9 6-14z m-431 128v-946l-569 98v747l569 101z m-86-279l-71-4-46-283h-1c-2 13-11 60-26 140l-26 136-67-3-27-133c-15-77-24-122-26-135h-1l-41 261-61-4 66-328 68-4 25 127c15 75 23 119 26 131h1c2-13 11-57 26-134l25-131 74-5 82 369z" horiz-adv-x="1000" />
<glyph glyph-name="microsoft" unicode="&#xe81d;" d="m475-150h-475v475h475v-475z m525 0h-475v475h475v-475z m-525 525h-475v475h475v-475z m525 0h-475v475h475v-475z" horiz-adv-x="1000" />
<glyph glyph-name="w3c" unicode="&#xe81e;" d="m0 84l0 766 1000 0 0-766-500-234z m84 461l63-275q3-14 17-14l47 0q14 0 18 14l23 113 21-113q4-14 18-14l49 0q14 0 17 14l61 275q2 10-3 16t-13 6l-50 0q-14 0-16-14l-23-121-26 121q-4 14-17 14l-38 0q-13 0-15-14l-26-121-25 121q-2 14-16 14l-50 0q-20 0-16-22z m344-242q37-51 103-53 45 2 76 30t32 68q-2 43-34 68 30 28 30 63-2 45-32 68t-72 24q-64 0-99-51-8-12 2-24l27-25q14-12 25 2 18 23 41 23 20 0 24-9 6-12 0-26-8-9-45-9-20 0-20-16l0-41q2-22 20-18 45 0 49-9t4-16q0-25-28-25-29 0-47 25-11 16-25 2l-29-29q-10-10-2-22z m232 108q0-73 36-117t95-44q70 0 104 75 3 19-10 23l-37 18q-6 2-14-1t-10-9q-12-29-33-29t-35 23-14 62 14 61 35 23q21-1 33-27 8-14 24-10l37 18q17 10 10 25-34 71-104 71-59 0-95-45t-36-117z" horiz-adv-x="1000" />
<glyph glyph-name="lego" unicode="&#xe81f;" d="m0 141l24 0q-7 14-7 34 0 65 46 186t87 183q32 49 84 49 45 0 45-34 0-52-72-199l82 0q20 62 53 126 34 68 73 91t116 23q29 0 57-14t27-40-13-42-37-22-44-9-46-2l-9 0q-15-22-28-58 18 3 37 3 64 0 64-38 0-9-3-18l0 0q-16-59-88-59-23 0-50 5-16-48-21-73 52 10 77 10t43-11 18-36q0-34-23-57t-54-31-64-8q-65 0-96 41l0 0q-20 24-20 62 0 23 3 45 8 50 28 112l-82 0q-9-19-26-55t-25-55l-1 0-7-14q22 2 34 2 59 0 59-40 0-51-39-73t-93-23q-65 0-85 39l-24 0z m538 78q0 38 16 95t33 99q19 45 36 74t43 57 61 41 80 13q50 0 87-19t37-65q0-38-21-68t-57-31q-52 0-52 33 0 6 4 18t3 18q0 13-22 13-17 0-32-14t-29-43-18-41-15-39l0 0q-32-84-32-119 0-29 28-29 25 0 44 25t26 52q-42 2-42 35 0 37 28 54t66 17q52 0 65-35l0 0q4-11 4-26 0-50-28-106t-69-87l0 0q-53-41-120-41-68 0-100 41l0 0q-24 29-24 78z m329-78l42 0q-18 26-18 66 0 79 49 204 19 47 33 74t37 56 57 41 78 13q120 0 120-115 0-50-22-120l0 0q-15-51-41-110l0 0q-37-77-73-109l0 0q-46-41-119-41-72 0-101 41l-42 0z m144 109l3 0q-6-35 22-35 23 0 43 38l-2 0q17 36 45 116t28 102q0 24-21 24-20 0-33-16-18-26-52-119l0 0q-25-67-33-110z" horiz-adv-x="1265" />
</font>
</defs>
</svg>
